<?xml version="1.0" standalone="no"?>
<!DOCTYPE svg PUBLIC "-//W3C//DTD SVG 1.1//EN" "http://www.w3.org/Graphics/SVG/1.1/DTD/svg11.dtd" >
<svg xmlns="http://www.w3.org/2000/svg">
<metadata>Generated by IcoMoon</metadata>
<defs>
<font id="icomoon" horiz-adv-x="1024">
<font-face units-per-em="1024" ascent="960" descent="-64" />
<missing-glyph horiz-adv-x="1024" />
<glyph unicode="&#x20;" horiz-adv-x="512" d="" />
<glyph unicode="&#xe900;" glyph-name="icon_right" d="M392.533 192c-11.477 0-22.443 4.608-30.464 12.8l-179.2 182.869c-16.512 16.811-16.256 43.819 0.597 60.331 16.853 16.427 43.819 16.256 60.331-0.597l148.736-151.765 387.669 395.563c16.512 16.896 43.52 17.067 60.331 0.64 16.853-16.512 17.067-43.52 0.597-60.331l-418.133-426.667c-7.979-8.235-18.987-12.843-30.464-12.843z" />
<glyph unicode="&#xe901;" glyph-name="icon_time" d="M520.021 874.667c-235.648 0-426.667-191.019-426.667-426.667s191.019-426.667 426.667-426.667 426.667 191.019 426.667 426.667c0 235.648-191.061 426.667-426.667 426.667zM520.021 106.667c-188.501 0-341.333 152.832-341.333 341.333s152.832 341.333 341.333 341.333 341.333-152.832 341.333-341.333-152.832-341.333-341.333-341.333zM689.493 235.819c-10.923 0-21.845 4.181-30.165 12.501l-173.483 169.515c-8.021 7.979-16.512 18.859-16.512 30.165v213.333c0 23.552 19.072 42.667 42.667 42.667s42.667-19.115 42.667-42.667v-195.669l160.981-157.013c16.683-16.683 18.688-43.648 2.005-60.331-8.32-8.32-17.237-12.501-28.16-12.501z" />
<glyph unicode="&#xe902;" glyph-name="icon_warning" d="M512 874.667c-235.648 0-426.667-191.019-426.667-426.667s191.019-426.667 426.667-426.667 426.667 191.019 426.667 426.667c0 235.648-191.019 426.667-426.667 426.667zM512 106.667c-188.501 0-341.333 152.832-341.333 341.333s152.832 341.333 341.333 341.333 341.333-152.832 341.333-341.333-152.832-341.333-341.333-341.333zM554.667 234.667c0-23.564-19.103-42.667-42.667-42.667s-42.667 19.103-42.667 42.667c0 23.564 19.103 42.667 42.667 42.667s42.667-19.103 42.667-42.667zM512 704c-23.552 0-42.667-19.115-42.667-42.667v-298.667c0-23.552 19.115-42.667 42.667-42.667s42.667 19.115 42.667 42.667v298.667c0 23.552-19.115 42.667-42.667 42.667z" />
<glyph unicode="&#xe903;" glyph-name="icon_address" d="M512 874.667c-188.203 0-341.333-153.131-341.333-341.333 0-74.453 23.552-145.195 68.139-204.629l204.885-273.195c16.043-21.419 41.6-34.176 68.309-34.176s52.267 12.757 68.267 34.133c0 0 0 0.043 0 0.043v0l204.928 273.195c44.587 59.435 68.139 130.176 68.139 204.629 0 188.203-153.131 341.333-341.333 341.333zM512 362.667c-94.251 0-170.667 76.416-170.667 170.667s76.416 170.667 170.667 170.667 170.667-76.416 170.667-170.667c0-94.251-76.416-170.667-170.667-170.667zM597.333 533.333c0-47.128-38.205-85.333-85.333-85.333s-85.333 38.205-85.333 85.333c0 47.128 38.205 85.333 85.333 85.333s85.333-38.205 85.333-85.333z" />
<glyph unicode="&#xe904;" glyph-name="icon_answer" d="M430.208 490.667h163.584l-81.792 196.267zM853.333 960h-682.667c-94.293 0-170.667-76.373-170.667-170.667v-512c0-94.293 76.373-170.667 170.667-170.667h170.667l170.667-170.667 170.667 170.667h170.667c94.293 0 170.667 76.373 170.667 170.667v512c0 94.293-76.373 170.667-170.667 170.667zM682.667 277.333l-53.333 128h-234.667l-53.333-128h-85.333l213.333 512h85.333l213.333-512h-85.333z" />
<glyph unicode="&#xe905;" glyph-name="icon_close2" d="M572.331 448l311.168 311.168c16.683 16.683 16.683 43.648 0 60.331s-43.648 16.683-60.331 0l-311.168-311.168-311.168 311.168c-16.683 16.683-43.648 16.683-60.331 0s-16.683-43.648 0-60.331l311.168-311.168-311.168-311.168c-16.683-16.683-16.683-43.648 0-60.331 8.32-8.32 19.243-12.501 30.165-12.501s21.845 4.181 30.165 12.501l311.168 311.168 311.168-311.168c8.32-8.32 19.243-12.501 30.165-12.501s21.845 4.181 30.165 12.501c16.683 16.683 16.683 43.648 0 60.331l-311.168 311.168z" />
<glyph unicode="&#xe906;" glyph-name="icon_delivery" d="M916.907 503.040c-0.853 1.28-1.707 2.56-2.56 3.413-1.28 1.28-2.133 2.56-2.56 2.987l-58.88 70.827c-20.48 24.32-50.347 38.4-82.347 38.4h-130.56v64c0 58.88-47.787 106.667-106.667 106.667h-341.333c-58.88 0-106.667-47.787-106.667-106.667v-384c0-58.88 47.787-106.667 106.667-106.667h21.333c0-46.933 38.4-85.333 85.333-85.333s85.333 38.4 85.333 85.333h298.667c0-46.933 38.4-85.333 85.333-85.333s85.333 38.4 85.333 85.333v2.133c48.64 9.813 85.333 52.907 85.333 104.533v139.947c0 23.040-7.68 46.080-21.76 64.427zM298.667 149.333c-23.467 0-42.667 19.2-42.667 42.667h85.333c0-23.467-19.2-42.667-42.667-42.667zM768 149.333c-23.467 0-42.667 19.2-42.667 42.667h85.333c0-23.467-19.2-42.667-42.667-42.667zM896 298.667c0-32-23.467-58.88-54.613-63.147-2.987-0.427-5.973-0.853-9.387-0.853h-640c-35.413 0-64 28.587-64 64v384c0 35.413 28.587 64 64 64h341.333c35.413 0 64-28.587 64-64v-85.333c0-11.947 9.387-21.333 21.333-21.333h151.893c19.2 0 37.12-8.533 49.067-23.040 0 0 62.293-74.667 62.72-75.093 8.96-11.093 13.653-25.173 13.653-39.253v-139.947zM512 490.667h-128v128c0 23.595-19.115 42.667-42.667 42.667s-42.667-19.072-42.667-42.667v-170.667c0-23.595 19.115-42.667 42.667-42.667h170.667c23.552 0 42.667 19.072 42.667 42.667s-19.115 42.667-42.667 42.667z" />
<glyph unicode="&#xe907;" glyph-name="icon_express" d="M932.437 505.771l-106.667 106.667c-4.011 3.968-9.429 6.229-15.104 6.229h-85.333v42.667c0 70.571-57.429 128-128 128h-384c-70.571 0-128-57.429-128-128v-384c0-11.307 4.48-22.187 12.501-30.165l42.667-42.667c7.979-8.021 18.859-12.501 30.165-12.501 0-47.061 38.272-85.333 85.333-85.333s85.333 38.272 85.333 85.333h341.333c0-47.061 38.272-85.333 85.333-85.333s85.333 38.272 85.333 85.333h64c11.776 0 21.333 9.557 21.333 21.333v277.333c0 5.675-2.261 11.093-6.229 15.104zM896 405.333h-170.667v170.667h76.501l94.165-94.165v-76.501z" />
<glyph unicode="&#xe908;" glyph-name="icon_filter" d="M597.333-21.333c-23.595 0-42.667 19.072-42.667 42.667v554.667c0 13.099 6.016 25.429 16.256 33.536l282.368 222.464h-682.624l282.411-222.507c10.24-8.064 16.256-20.395 16.256-33.493v-426.667c0-23.595-19.072-42.667-42.667-42.667s-42.667 19.072-42.667 42.667v405.973l-266.112 209.664c-20.736 16.341-32.555 40.747-32.555 67.029 0 47.061 38.272 85.333 85.333 85.333h682.667c47.061 0 85.333-38.272 85.333-85.333 0-26.283-11.819-50.688-32.512-67.029l-266.155-209.664v-533.973c0-23.595-19.072-42.667-42.667-42.667z" />
<glyph unicode="&#xe909;" glyph-name="icon_hide" d="M919.765 498.219c-40.107 50.603-87.168 92.501-139.136 125.184l-111.488-111.488c8.661-20.437 13.525-42.965 13.525-66.603 0-94.123-76.544-170.667-170.667-170.667-23.637 0-46.123 4.864-66.603 13.568l-77.227-77.227c45.909-13.696 93.952-21.632 143.872-21.632 161.152 0 306.261 74.667 406.869 202.667 0.896 0.427 2.688 2.987 3.115 3.413 22.272 29.867 22.272 69.973 0 99.84-0.512 0.384-2.261 2.56-2.261 2.944zM596.736 439.595l-79.019-79.019c42.411 2.901 76.16 36.608 79.019 79.019zM468.48 371.968l463.787 463.787c8.533 8.107 8.533 21.76 0 29.867-8.107 8.533-21.76 8.533-29.867 0l-201.387-201.387c-58.88 24.32-122.453 37.12-189.013 37.12-161.707 0-306.773-75.093-407.893-203.52-0.427-0.427-1.707-2.133-2.133-2.56-22.187-29.867-22.187-69.973 0-99.84 0.427-0.427 2.133-2.56 2.133-2.987 49.92-63.147 110.080-113.067 177.92-147.2l-190.293-190.293c-8.533-8.107-8.533-21.76 0-29.867 3.84-4.267 9.387-6.4 14.933-6.4s11.093 2.133 14.933 6.4l346.88 346.88zM341.333 445.312c0 94.293 76.373 170.667 170.667 170.667 39.253 0 75.52-13.227 104.533-36.267l-61.013-61.013c-12.8 7.68-27.733 11.947-43.52 11.947-46.933 0-85.333-38.4-85.333-85.333 0-15.787 4.267-30.72 11.947-43.52l-61.013-61.013c-23.040 29.056-36.267 65.323-36.267 104.533z" />
<glyph unicode="&#xe90a;" glyph-name="icon_hide2" d="M920.704 503.552l-4.821 6.485c-102.784 125.099-246.229 193.963-403.883 193.963-158.208 0-301.653-69.035-403.285-193.579l-3.029-3.627c-26.325-34.048-27.179-79.445-2.389-114.347l4.821-6.485c102.784-125.099 246.229-193.963 403.883-193.963 157.355 0 299.733 68.011 401.323 191.531 1.237 1.109 4.992 5.675 4.992 5.675 26.368 34.048 27.179 79.445 2.389 114.347zM886.357 417.323c-0.128-0.085-4.437-4.736-4.437-4.736-93.397-114.731-224.811-177.92-369.92-177.92-142.336 0-272.128 61.355-366.293 172.843l-6.272 7.808c-15.104 19.584-15.104 45.824-1.323 64.213l3.072 3.115c93.952 115.243 225.664 178.688 370.816 178.688 142.293 0 272.128-61.355 366.293-172.843l6.272-7.808c15.147-19.541 15.147-45.824 1.792-63.36zM512 576c-70.571 0-128-57.429-128-128s57.429-128 128-128 128 57.429 128 128-57.429 128-128 128zM512 362.667c-47.061 0-85.333 38.272-85.333 85.333s38.272 85.333 85.333 85.333 85.333-38.272 85.333-85.333-38.272-85.333-85.333-85.333z" />
<glyph unicode="&#xe90b;" glyph-name="icon_img" d="M853.333 789.333h-682.667c-46.933 0-85.333-38.4-85.333-85.333v-512c0-46.933 38.4-85.333 85.333-85.333h682.667c46.933 0 85.333 38.4 85.333 85.333v512c0 46.933-38.4 85.333-85.333 85.333zM896 192c0-23.552-19.115-42.667-42.667-42.667h-682.667c-23.552 0-42.667 19.115-42.667 42.667v512c0 23.552 19.115 42.667 42.667 42.667h682.667c23.552 0 42.667-19.115 42.667-42.667v-512zM341.333 533.333l-170.667-170.667v-170.667h682.667v298.667l-256-213.333zM725.333 576c0-47.128-38.205-85.333-85.333-85.333s-85.333 38.205-85.333 85.333c0 47.128 38.205 85.333 85.333 85.333s85.333-38.205 85.333-85.333z" />
<glyph unicode="&#xe90c;" glyph-name="icon_layout1" d="M426.667 874.667h-213.333c-47.147 0-85.333-38.187-85.333-85.333v-213.333c0-47.147 38.187-85.333 85.333-85.333h213.333c47.147 0 85.333 38.187 85.333 85.333v213.333c0 47.147-38.187 85.333-85.333 85.333zM469.333 576c0-23.552-19.115-42.667-42.667-42.667h-213.333c-23.552 0-42.667 19.115-42.667 42.667v213.333c0 23.552 19.115 42.667 42.667 42.667h213.333c23.552 0 42.667-19.115 42.667-42.667v-213.333zM853.333 874.667h-213.333c-47.147 0-85.333-38.187-85.333-85.333v-213.333c0-47.147 38.187-85.333 85.333-85.333h213.333c47.147 0 85.333 38.187 85.333 85.333v213.333c0 47.147-38.187 85.333-85.333 85.333zM896 576c0-23.552-19.115-42.667-42.667-42.667h-213.333c-23.552 0-42.667 19.115-42.667 42.667v213.333c0 23.552 19.115 42.667 42.667 42.667h213.333c23.552 0 42.667-19.115 42.667-42.667v-213.333zM853.333 448h-213.333c-47.147 0-85.333-38.187-85.333-85.333v-213.333c0-47.147 38.187-85.333 85.333-85.333h213.333c47.147 0 85.333 38.187 85.333 85.333v213.333c0 47.147-38.187 85.333-85.333 85.333zM896 149.333c0-23.552-19.115-42.667-42.667-42.667h-213.333c-23.552 0-42.667 19.115-42.667 42.667v213.333c0 23.552 19.115 42.667 42.667 42.667h213.333c23.552 0 42.667-19.115 42.667-42.667v-213.333zM426.667 448h-213.333c-47.147 0-85.333-38.187-85.333-85.333v-213.333c0-47.147 38.187-85.333 85.333-85.333h213.333c47.147 0 85.333 38.187 85.333 85.333v213.333c0 47.147-38.187 85.333-85.333 85.333zM469.333 149.333c0-23.552-19.115-42.667-42.667-42.667h-213.333c-23.552 0-42.667 19.115-42.667 42.667v213.333c0 23.552 19.115 42.667 42.667 42.667h213.333c23.552 0 42.667-19.115 42.667-42.667v-213.333z" />
<glyph unicode="&#xe90d;" glyph-name="icon_layout2" d="M896 832h-768c-23.552 0-42.667-19.115-42.667-42.667v-85.333c0-23.552 19.115-42.667 42.667-42.667h768c23.552 0 42.667 19.115 42.667 42.667v85.333c0 23.552-19.115 42.667-42.667 42.667zM896 704h-768v85.333h768v-85.333zM896 234.667h-768c-23.552 0-42.667-19.115-42.667-42.667v-85.333c0-23.552 19.115-42.667 42.667-42.667h768c23.552 0 42.667 19.115 42.667 42.667v85.333c0 23.552-19.115 42.667-42.667 42.667zM896 106.667h-768v85.333h768v-85.333zM896 533.333h-768c-23.552 0-42.667-19.115-42.667-42.667v-85.333c0-23.552 19.115-42.667 42.667-42.667h768c23.552 0 42.667 19.115 42.667 42.667v85.333c0 23.552-19.115 42.667-42.667 42.667zM896 405.333h-768v85.333h768v-85.333z" />
<glyph unicode="&#xe90e;" d="M597.333 448c0-47.128-38.205-85.333-85.333-85.333s-85.333 38.205-85.333 85.333c0 47.128 38.205 85.333 85.333 85.333s85.333-38.205 85.333-85.333z" />
<glyph unicode="&#xe90f;" d="M256 448c0-47.128-38.205-85.333-85.333-85.333s-85.333 38.205-85.333 85.333c0 47.128 38.205 85.333 85.333 85.333s85.333-38.205 85.333-85.333z" />
<glyph unicode="&#xe910;" d="M938.667 448c0-47.128-38.205-85.333-85.333-85.333s-85.333 38.205-85.333 85.333c0 47.128 38.205 85.333 85.333 85.333s85.333-38.205 85.333-85.333z" />
<glyph unicode="&#xe911;" glyph-name="icon_notification" d="M854.699 507.733c-3.541 11.307-15.488 17.365-26.752 13.909-11.221-3.541-17.451-15.531-13.909-26.752 4.821-15.317 7.296-31.104 7.296-46.933 0-11.776 9.557-21.333 21.333-21.333s21.333 9.557 21.333 21.333c0 20.224-3.115 40.32-9.301 59.776zM648.235 686.208c-11.221 3.285-23.125-3.072-26.496-14.421-3.328-11.307 3.115-23.168 14.421-26.496 56.789-16.811 106.283-46.677 139.349-84.053 4.224-4.779 10.069-7.211 16-7.211 5.035 0 10.069 1.749 14.123 5.333 8.832 7.851 9.685 21.291 1.835 30.123-38.827 43.989-93.909 77.397-159.232 96.725zM512 789.333c-235.264 0-426.667-153.131-426.667-341.333 0-63.957 21.931-125.696 63.573-179.541l-57.643-97.408c-3.883-6.613-5.931-14.080-5.931-21.717 0-23.552 19.157-42.667 42.667-42.667 5.419 0 10.709 0.981 15.445 2.901l135.125 52.565c69.376-36.309 149.845-55.467 233.429-55.467 235.264 0 426.667 153.131 426.667 341.333s-191.403 341.333-426.667 341.333zM512 149.333c-80 0-156.629 18.987-221.696 54.912-5.504 3.115-12.16 3.499-18.048 1.195l-144.256-56.149 65.195 110.165c4.608 7.851 3.797 17.707-2.091 24.661-41.259 48.768-63.104 105.429-63.104 163.883 0 164.651 172.288 298.667 384 298.667s384-134.016 384-298.667-172.288-298.667-384-298.667z" />
<glyph unicode="&#xe912;" glyph-name="icon_packge" d="M896.853 597.333c0 6.955-3.328 13.184-8.491 17.024l-98.645 123.264c-19.2 31.872-54.144 51.712-91.264 51.712h-372.907c-37.12 0-72.064-19.84-89.643-49.408l-103.253-129.28c-0.341-0.427-0.299-0.981-0.597-1.408-1.579-2.389-2.688-4.992-3.243-7.893-0.171-0.896-0.469-1.664-0.512-2.56-0.043-0.512-0.299-0.939-0.299-1.451v-387.541c0-57.813 46.848-103.125 106.667-103.125h554.667c59.819 0 106.667 45.312 106.667 103.125v383.317c0.299 1.408 0.853 2.731 0.853 4.224zM698.453 746.667c22.229 0 43.179-11.861 56.277-33.365l75.605-94.635h-275.669v128h143.787zM270.891 715.605c11.477 19.2 32.427 31.061 54.656 31.061h143.787v-128h-275.712l77.269 96.939zM853.333 209.792c0-33.92-28.117-60.459-64-60.459h-554.667c-35.883 0-64 26.539-64 60.459v366.208h682.667v-366.208z" />
<glyph unicode="&#xe913;" glyph-name="icon_position" d="M512 962.688c-235.648 0-426.667-191.019-426.667-426.667 0-108.501 40.491-207.573 107.221-282.88l255.531-288.384c15.659-17.621 38.485-28.757 63.915-28.757s48.256 11.136 63.872 28.757l255.531 288.384c66.773 75.307 107.264 174.336 107.264 282.837 0 235.648-191.019 426.709-426.667 426.709zM512 365.312c-94.251 0-170.667 76.416-170.667 170.667s76.416 170.667 170.667 170.667 170.667-76.416 170.667-170.667c0-94.251-76.416-170.667-170.667-170.667z" />
<glyph unicode="&#xe914;" glyph-name="icon_question" d="M853.333 960h-682.667c-94.293 0-170.667-76.373-170.667-170.667v-512c0-94.293 76.373-170.667 170.667-170.667h170.667l170.667-170.667 170.667 170.667h170.667c94.293 0 170.667 76.373 170.667 170.667v512c0 94.293-76.373 170.667-170.667 170.667zM768 277.333h-85.333l-37.589 37.589c-38.827-23.68-84.267-37.589-133.077-37.589-141.397 0-256 114.603-256 256s114.603 256 256 256 256-114.603 256-256c0-70.699-28.672-134.699-74.965-181.035l74.965-74.965zM512 704c-94.251 0-170.667-76.416-170.667-170.667s76.416-170.667 170.667-170.667c25.003 0 48.597 5.675 69.973 15.36l-69.973 69.973h85.333l35.328-35.328c30.891 30.848 50.005 73.515 50.005 120.661 0 94.251-76.416 170.667-170.667 170.667z" />
<glyph unicode="&#xe915;" glyph-name="icon_review" d="M789.333 832h-554.667c-58.837 0-106.667-47.829-106.667-106.667v-384c0-58.837 47.829-106.667 106.667-106.667h160.683l100.309-120.32c4.011-4.907 10.027-7.68 16.341-7.68s12.331 2.773 16.384 7.68l100.267 120.32h160.683c58.837 0 106.667 47.829 106.667 106.667v384c0 58.837-47.829 106.667-106.667 106.667zM853.333 341.333c0-35.285-28.715-64-64-64h-170.667c-6.315 0-12.331-2.773-16.384-7.68l-90.283-108.331-90.283 108.331c-4.053 4.907-10.069 7.68-16.384 7.68h-170.667c-35.285 0-64 28.715-64 64v384c0 35.285 28.715 64 64 64h554.667c35.285 0 64-28.715 64-64v-384zM640 661.333h-256c-23.595 0-42.667-19.072-42.667-42.667s19.072-42.667 42.667-42.667h256c23.595 0 42.667 19.072 42.667 42.667s-19.072 42.667-42.667 42.667zM640 490.667h-256c-23.595 0-42.667-19.072-42.667-42.667s19.072-42.667 42.667-42.667h256c23.595 0 42.667 19.072 42.667 42.667s-19.072 42.667-42.667 42.667z" />
<glyph unicode="&#xe916;" glyph-name="icon_right2" d="M426.667 21.333c-11.691 0-23.296 4.736-31.744 14.123-15.787 17.493-14.336 44.501 3.157 60.245l391.467 352.299-391.424 352.299c-17.536 15.744-18.944 42.752-3.157 60.245 15.744 17.536 42.709 18.901 60.245 3.157l426.667-384c9.003-8.064 14.123-19.627 14.123-31.701s-5.12-23.637-14.123-31.701l-426.667-384c-8.149-7.339-18.347-10.965-28.544-10.965z" />
<glyph unicode="&#xe917;" glyph-name="icon_selfserve" d="M853.333 561.835c0 0 0-0.128 0-0.213 0 55.936-43.008 99.712-98.987 99.712h-114.347v52.395c0 65.195-57.429 118.272-128 118.272s-128-53.077-128-118.272v-52.395h-111.701c-20.011 0-39.851-5.675-57.856-16.597-29.696-19.029-47.957-49.408-50.005-83.157-0.597-7.808-24.021-257.835-36.437-390.912 0-58.837 48-106.667 107.051-106.667h556.587c59.051 0 103.253 47.829 103.168 108.715-35.285 366.72-41.472 389.12-41.472 389.12zM426.667 713.728c0 41.685 38.272 75.605 85.333 75.605s85.333-33.92 85.333-75.605v-52.395h-170.667v52.395zM791.595 106.667h-556.544c-35.413 0-64.213 28.715-64.299 61.995 36.437 388.437 36.437 390.229 36.395 390.272 1.237 20.096 12.373 38.315 30.080 49.664 10.795 6.571 22.912 10.069 35.072 10.069h482.048c33.536 0 61.568-26.283 63.957-61.227 0.981-8.405 25.045-258.005 37.504-386.773 0-35.285-28.8-64-64.213-64zM682.667 362.667h-128v128c0 23.595-19.115 42.667-42.667 42.667s-42.667-19.072-42.667-42.667v-170.667c0-23.595 19.115-42.667 42.667-42.667h170.667c23.595 0 42.667 19.072 42.667 42.667s-19.072 42.667-42.667 42.667z" />
<glyph unicode="&#xe918;" glyph-name="icon_show" d="M597.333 448c0-47.128-38.205-85.333-85.333-85.333s-85.333 38.205-85.333 85.333c0 47.128 38.205 85.333 85.333 85.333s85.333-38.205 85.333-85.333zM921.984 497.92c-0.427 0.427-0.896 1.28-1.323 1.707s-0.896 0.853-0.896 1.28c-101.504 128-246.187 203.093-407.765 203.093s-306.688-75.093-407.765-203.52c-0.427-0.427-0.427-0.427-0.896-0.853s-0.896-1.28-1.323-1.707c-22.272-29.867-22.272-69.973 0-99.84 0.427-0.427 0.896-1.28 1.323-1.707s0.896-0.853 0.896-1.28c101.504-128 246.187-203.093 407.765-203.093 161.152 0 306.261 74.667 406.869 202.667 0.896 0.427 1.323 1.28 1.792 1.707 0.427 0.427 0.896 1.28 1.323 1.707 22.229 29.867 22.229 69.973 0 99.84zM512 277.333c-94.123 0-170.667 76.544-170.667 170.667s76.544 170.667 170.667 170.667 170.667-76.544 170.667-170.667-76.544-170.667-170.667-170.667z" />
<glyph unicode="&#xe919;" glyph-name="icon_show2" d="M512 512c0 7.68 1.28 14.507 3.84 21.333h-3.84c-46.933 0-85.333-38.4-85.333-85.333s38.4-85.333 85.333-85.333 85.333 38.4 85.333 85.333v3.84c-6.827-2.56-13.653-3.84-21.333-3.84-35.413 0-64 28.587-64 64zM922.027 497.92c-0.427 0.427-0.853 1.28-1.28 1.707s-0.853 0.853-0.853 1.28c-101.547 128-246.187 203.093-407.893 203.093s-306.773-75.093-407.893-203.52c-0.427-0.427-0.427-0.427-0.853-0.853s-0.853-1.28-1.28-1.707c-22.187-29.867-22.187-69.973 0-99.84 0.427-0.427 0.853-1.28 1.28-1.707s0.853-0.853 0.853-1.28c101.547-128 246.187-203.093 407.893-203.093 161.28 0 306.347 74.667 407.040 202.667 0.853 0.427 1.28 1.28 1.707 1.707s0.853 1.28 1.28 1.707c22.187 29.867 22.187 69.973 0 99.84zM512 320c-70.4 0-128 57.6-128 128s57.6 128 128 128 128-57.6 128-128c0-70.4-57.6-128-128-128z" />
<glyph unicode="&#xe91a;" glyph-name="icon_store" d="M885.291 590.123l-85.333 128c-11.477 17.195-31.061 28.544-53.291 28.544h-469.333c-22.229 0-41.813-11.349-53.291-28.544l-85.333-128c-6.784-10.155-10.709-22.357-10.709-35.456 0-35.328 28.672-64 64-64s64 28.672 64 64c0-35.328 28.672-64 64-64s64 28.672 64 64c0-35.328 28.672-64 64-64s64 28.672 64 64c0-35.328 28.672-64 64-64s64 28.672 64 64c0-35.328 28.672-64 64-64s64 28.672 64 64c0-35.328 28.672-64 64-64s64 28.672 64 64c0 13.099-3.925 25.301-10.709 35.456zM789.333 426.667c-11.776 0-21.333-9.557-21.333-21.333v-213.333h-512v213.333c0 11.776-9.557 21.333-21.333 21.333s-21.333-9.557-21.333-21.333v-234.667c0-58.795 47.829-106.667 106.667-106.667h384c58.837 0 106.667 47.872 106.667 106.667v234.667c0 11.776-9.557 21.333-21.333 21.333zM277.333 789.333h469.333c11.776 0 21.333 9.557 21.333 21.333s-9.557 21.333-21.333 21.333h-469.333c-11.776 0-21.333-9.557-21.333-21.333s9.557-21.333 21.333-21.333z" />
<glyph unicode="&#xe91b;" glyph-name="icon_tele" d="M981.333 234.667v-170.667c0-46.933-38.4-85.333-85.333-85.333-169.813 0-328.107 49.92-461.227 136.107-102.827 65.28-190.72 153.173-256 256-86.187 133.12-136.107 291.413-136.107 461.227 0 46.933 38.4 85.333 85.333 85.333h170.667c46.933 0 85.333-38.4 85.333-85.333v-220.587c0-22.613-8.96-44.373-25.173-60.587l-118.613-118.613c63.573-104.533 151.467-192.427 256-256l118.613 118.613c16.213 16.213 37.973 25.173 60.587 25.173h220.587c46.933 0 85.333-38.4 85.333-85.333z" />
<glyph unicode="&#xe91c;" glyph-name="icon_time2" d="M512 960c-282.325 0-512-229.675-512-512s229.675-512 512-512 512 229.675 512 512-229.675 512-512 512zM512 21.333c-235.264 0-426.667 191.403-426.667 426.667s191.403 426.667 426.667 426.667 426.667-191.403 426.667-426.667-191.403-426.667-426.667-426.667zM725.333 490.667h-170.667v170.667c0 23.595-19.072 42.667-42.667 42.667s-42.667-19.072-42.667-42.667v-213.333c0-23.595 19.072-42.667 42.667-42.667h213.333c23.595 0 42.667 19.072 42.667 42.667s-19.072 42.667-42.667 42.667z" />
<glyph unicode="&#xe91d;" glyph-name="icon_up" d="M798.165 606.165l-256 256c-16.683 16.683-43.648 16.683-60.331 0l-256-256c-16.683-16.683-16.683-43.648 0-60.331s43.648-16.683 60.331 0l183.168 183.168v-665.003c0-23.595 19.115-42.667 42.667-42.667s42.667 19.072 42.667 42.667v665.003l183.168-183.168c8.32-8.32 19.243-12.501 30.165-12.501s21.845 4.181 30.165 12.501c16.683 16.683 16.683 43.648 0 60.331z" />
<glyph unicode="&#xe91e;" glyph-name="icon_wallet" d="M810.667 597.333v106.667c0 23.467-19.2 42.667-42.667 42.667h-597.333c-23.467 0-42.667-19.2-42.667-42.667v-512c0-23.467 19.2-42.667 42.667-42.667h597.333c23.467 0 42.667 19.2 42.667 42.667v106.667c0 11.947 9.387 21.333 21.333 21.333s21.333-9.387 21.333-21.333v-106.667c0-46.933-38.4-85.333-85.333-85.333h-597.333c-46.933 0-85.333 38.4-85.333 85.333v512c0 46.933 38.4 85.333 85.333 85.333h597.333c46.933 0 85.333-38.4 85.333-85.333v-106.667c0-11.947-9.387-21.333-21.333-21.333s-21.333 9.387-21.333 21.333zM853.333 533.333h-256c-23.552 0-42.667-19.115-42.667-42.667v-85.333c0-23.552 19.115-42.667 42.667-42.667h256c23.552 0 42.667 19.115 42.667 42.667v85.333c0 23.552-19.115 42.667-42.667 42.667zM640 405.333c-23.552 0-42.667 19.115-42.667 42.667s19.115 42.667 42.667 42.667 42.667-19.115 42.667-42.667c0-23.552-19.115-42.667-42.667-42.667z" />
<glyph unicode="&#xe91f;" glyph-name="icon_warning2" d="M512 960c-282.325 0-512-229.675-512-512s229.675-512 512-512 512 229.675 512 512-229.675 512-512 512zM512 21.333c-235.264 0-426.667 191.403-426.667 426.667s191.403 426.667 426.667 426.667 426.667-191.403 426.667-426.667-191.403-426.667-426.667-426.667zM512 704c-23.552 0-42.667-19.072-42.667-42.667v-256c0-23.595 19.115-42.667 42.667-42.667s42.667 19.072 42.667 42.667v256c0 23.595-19.115 42.667-42.667 42.667zM554.667 234.667c0-23.564-19.103-42.667-42.667-42.667s-42.667 19.103-42.667 42.667c0 23.564 19.103 42.667 42.667 42.667s42.667-19.103 42.667-42.667z" />
<glyph unicode="&#xe920;" glyph-name="icon_warranty" d="M816.256 691.456c-96.768 22.571-188.928 66.645-266.453 127.36-21.547 16.981-54.144 16.939-75.563 0.043-77.568-60.757-169.728-104.832-266.411-127.403-46.976-10.837-79.829-52.053-79.829-100.224 0-2.731 0.597-8.448 1.28-14.379 18.176-233.259 120.875-387.371 333.056-499.755 5.717-3.499 13.013-6.315 13.568-6.528 11.605-4.352 23.765-6.571 36.096-6.571s24.491 2.219 36.309 6.656c0.384 0.128 7.68 2.944 13.355 6.443 209.323 110.464 314.923 267.349 332.245 493.568 0 0 2.091 18.005 2.091 20.523 0 48.213-32.853 89.429-79.744 100.267zM851.371 574.037c-16.299-213.291-111.872-354.901-309.845-459.307l-3.029-1.707c-1.792-0.896-4.181-2.048-5.419-2.56-13.611-5.077-28.8-4.992-41.984-0.085-1.408 0.555-3.797 1.707-5.632 2.645l-2.987 1.707c-197.973 104.747-293.76 248.32-310.613 463.787 0 0-1.152 11.008-1.195 12.715 0 28.203 19.2 52.309 46.805 58.624 102.784 24.021 200.704 70.827 283.179 135.467 6.613 5.248 16 5.291 22.784-0.043 82.432-64.597 180.352-111.403 283.179-135.424 27.52-6.315 46.72-30.379 46.72-58.325-0.085-2.133-1.963-17.493-1.963-17.493zM640 490.667h-85.333v85.333c0 23.595-19.115 42.667-42.667 42.667s-42.667-19.072-42.667-42.667v-85.333h-85.333c-23.552 0-42.667-19.072-42.667-42.667s19.115-42.667 42.667-42.667h85.333v-85.333c0-23.595 19.115-42.667 42.667-42.667s42.667 19.072 42.667 42.667v85.333h85.333c23.552 0 42.667 19.072 42.667 42.667s-19.115 42.667-42.667 42.667z" />
<glyph unicode="&#xe921;" glyph-name="icon_account" d="M910.72 260.928c-1.941 3.115-4.139 5.931-5.739 7.637-87.659 114.048-215.36 179.435-350.315 179.435-134.869 0-262.421-65.173-348.885-177.515-0.107-0.128-10.795-14.4-11.221-15.104-39.381-63.040-29.355-148.032 23.296-197.696 24.683-23.445 56.277-36.352 88.917-36.352h495.787c75.051 0 136.107 67.008 136.107 149.333 0 32.853-10.155 65.259-27.947 90.261zM802.56 64h-495.787c-21.675 0-42.816 8.747-59.584 24.683-37.355 35.2-44.715 97.963-16.96 143.275 1.536 2.027 8.32 11.221 8.32 11.221 79.36 103.040 194.581 162.155 316.117 162.155 121.6 0 236.949-59.307 317.419-163.861 0.917-1.067 1.792-2.069 3.179-4.203 13.355-18.88 20.736-42.517 20.736-66.603 0-58.816-41.92-106.667-93.44-106.667zM328.725 481.877c7.637 3.413 12.608 11.051 12.608 19.52 0 5.696-2.261 11.072-6.165 14.997-36.971 44.245-56.512 101.696-56.512 166.272 0 41.6 8.981 81.579 26.688 118.827 5.056 10.645 0.512 23.381-10.112 28.437-10.688 5.056-23.403 0.512-28.437-10.112-20.437-43.029-30.805-89.173-30.805-137.173 0-65.941 17.877-125.781 51.968-174.677-108.928-63.467-196.48-159.509-242.261-266.667-4.651-10.795 0.384-23.339 11.221-27.968 2.731-1.173 5.568-1.707 8.384-1.707 8.277 0 16.171 4.864 19.627 12.949 44.885 105.088 133.696 198.805 243.797 257.301zM554.667 490.667c105.877 0 192 86.123 192 192s-86.123 192-192 192-192-86.123-192-192 86.123-192 192-192zM554.667 832c82.325 0 149.333-67.008 149.333-149.333s-67.008-149.333-149.333-149.333-149.333 67.008-149.333 149.333 67.008 149.333 149.333 149.333z" />
<glyph unicode="&#xe922;" glyph-name="icon_around" d="M512 874.667c-235.264 0-426.667-191.403-426.667-426.667s191.403-426.667 426.667-426.667c235.264 0 426.667 191.403 426.667 426.667s-191.403 426.667-426.667 426.667zM512 64c-211.733 0-384 172.267-384 384s172.267 384 384 384c211.733 0 384-172.267 384-384s-172.267-384-384-384zM574.4 503.616c-0.021 0-0.021 0.021 0 0-1.131 1.792-2.837 3.072-4.437 4.459-0.811 0.704-1.387 1.707-2.304 2.283-0.021 0-0.021 0.021-0.043 0.043l-236.309 147.691c-8.405 5.269-19.371 3.989-26.389-3.008-7.019-7.019-8.277-17.963-3.008-26.389l147.691-236.309c0-0.021 0.021-0.021 0.043-0.043 0.832-1.344 2.219-2.24 3.349-3.371s2.027-2.517 3.371-3.349c0.021 0 0.021-0.021 0.043-0.043l236.309-147.691c3.477-2.155 7.381-3.221 11.285-3.221 0.107 0 0.277 0 0.427 0 11.797 0 21.333 9.557 21.333 21.333 0 5.568-2.133 10.645-5.611 14.443l-145.749 233.173zM522.261 488.448l-50.688-50.688-84.48 135.168 135.168-84.48z" />
<glyph unicode="&#xe923;" glyph-name="icon_back" d="M693.333 42.667c-5.461 0-10.923 2.091-15.083 6.251l-384 384c-8.341 8.341-8.341 21.824 0 30.165l384 384c8.341 8.341 21.824 8.341 30.165 0s8.341-21.824 0-30.165l-368.917-368.917 368.917-368.917c8.341-8.341 8.341-21.824 0-30.165-4.16-4.16-9.621-6.251-15.083-6.251z" />
<glyph unicode="&#xe924;" glyph-name="icon_bag" d="M852.885 818.219c-3.776 32.171-31.104 56.448-63.552 56.448h-149.333c-11.797 0-21.333-9.536-21.333-21.333s9.536-21.333 21.333-21.333h149.333c10.816 0 19.925-8.085 21.269-19.435 0-0.149 0.021-0.299 0.043-0.427 0 0 85.355-725.909 85.355-726.805 0-11.776-9.557-21.333-21.333-21.333h-725.333c-11.776 0-21.376 9.557-21.376 21.333 0 0.896 85.376 727.808 85.376 727.808 0 0.043 0 0.064 0 0.107 0 10.688 10.539 18.752 21.333 18.752h149.333c11.797 0 21.333 9.536 21.333 21.333s-9.536 21.333-21.333 21.333h-149.333c-31.765 0-58.645-23.296-63.403-55.275-0.064-0.384-0.128-0.789-0.149-1.173 0 0-85.781-730.368-85.781-732.885 0-35.285 28.715-64 64-64h725.333c35.285 0 64 28.715 64 64 0 2.517-85.781 732.885-85.781 732.885zM362.667 704c-11.797 0-21.333-9.536-21.333-21.333 0-94.101 76.565-170.667 170.667-170.667s170.667 76.565 170.667 170.667c0 11.797-9.536 21.333-21.333 21.333s-21.333-9.536-21.333-21.333c0-70.592-57.408-128-128-128s-128 57.408-128 128c0 11.797-9.536 21.333-21.333 21.333z" />
<glyph unicode="&#xe925;" glyph-name="icon_cart" d="M362.667 149.333c-35.285 0-64-28.715-64-64s28.715-64 64-64 64 28.715 64 64-28.715 64-64 64zM362.667 64c-11.755 0-21.333 9.557-21.333 21.333s9.579 21.333 21.333 21.333 21.333-9.557 21.333-21.333-9.579-21.333-21.333-21.333zM746.667 149.333c-35.285 0-64-28.715-64-64s28.715-64 64-64 64 28.715 64 64-28.715 64-64 64zM746.667 64c-11.755 0-21.333 9.557-21.333 21.333s9.579 21.333 21.333 21.333 21.333-9.557 21.333-21.333-9.579-21.333-21.333-21.333zM855.552 743.915c-7.467 1.856-15.211 2.752-23.68 2.752h-604.672l-4.693 34.539c-6.635 53.269-52.16 93.461-105.835 93.461h-10.005c-11.776 0-21.333-9.536-21.333-21.333s9.557-21.333 21.333-21.333h10.005c32.213 0 59.52-24.107 63.552-56.32l66.624-490.24c6.656-53.269 52.16-93.44 105.835-93.44h479.317c11.776 0 21.333 9.536 21.333 21.333s-9.557 21.333-21.333 21.333h-479.339c-32.213 0-59.52 24.107-63.552 56.299l-2.283 16.853c73.195 4.245 499.883 28.992 506.475 29.333 45.611 4.245 83.413 37.205 94.080 82.027 0.021 0.064 0.021 0.128 0.043 0.192 0.619 2.645 47.040 190.805 48.747 198.784l0.192-0.043c11.989 56.96-24.533 113.429-80.811 125.803zM894.656 627.008c-1.173-4.971-47.147-191.403-48.597-197.995l-0.149 0.043c-6.421-27.008-29.163-46.848-54.571-49.323-0.853 0-1.451-0.021-510.251-29.525l-48.085 353.792h598.869c4.949 0 9.344-0.491 13.973-1.621 34.027-7.488 55.893-41.28 48.811-75.371z" />
<glyph unicode="&#xe926;" glyph-name="icon_category-03" d="M106.667 746.667h256c11.797 0 21.333 9.557 21.333 21.333s-9.536 21.333-21.333 21.333h-256c-11.797 0-21.333-9.557-21.333-21.333s9.536-21.333 21.333-21.333zM106.667 405.333h256c11.797 0 21.333 9.557 21.333 21.333s-9.536 21.333-21.333 21.333h-256c-11.797 0-21.333-9.557-21.333-21.333s9.536-21.333 21.333-21.333zM746.667 106.667h-640c-11.797 0-21.333-9.557-21.333-21.333s9.536-21.333 21.333-21.333h640c11.797 0 21.333 9.557 21.333 21.333s-9.536 21.333-21.333 21.333zM937.088 50.709l-113.984 279.765c-4.459 10.923-16.917 16.128-27.797 11.712-10.923-4.437-16.171-16.896-11.712-27.819l113.984-279.765c3.371-8.256 11.328-13.269 19.755-13.269 2.688 0 5.419 0.512 8.043 1.579 10.923 4.437 16.171 16.896 11.712 27.797zM682.667 362.667c141.163 0 256 114.837 256 256s-114.837 256-256 256-256-114.837-256-256 114.837-256 256-256zM682.667 832c117.632 0 213.333-95.701 213.333-213.333s-95.701-213.333-213.333-213.333-213.333 95.701-213.333 213.333 95.701 213.333 213.333 213.333z" />
<glyph unicode="&#xe927;" glyph-name="icon_category-07" d="M170.667 682.667h-42.667c-23.531 0-42.667 19.136-42.667 42.667v42.667c0 23.531 19.136 42.667 42.667 42.667h42.667c23.531 0 42.667-19.136 42.667-42.667v-42.667c0-23.531-19.136-42.667-42.667-42.667zM128 768v-42.667h42.688l-0.021 42.667h-42.667zM917.333 725.333h-597.333c-11.776 0-21.333 9.536-21.333 21.333s9.557 21.333 21.333 21.333h597.333c11.776 0 21.333-9.536 21.333-21.333s-9.557-21.333-21.333-21.333zM170.667 384h-42.667c-23.531 0-42.667 19.136-42.667 42.667v42.667c0 23.531 19.136 42.667 42.667 42.667h42.667c23.531 0 42.667-19.136 42.667-42.667v-42.667c0-23.531-19.136-42.667-42.667-42.667zM128 469.333v-42.667h42.688l-0.021 42.667h-42.667zM917.333 426.667h-597.333c-11.776 0-21.333 9.536-21.333 21.333s9.557 21.333 21.333 21.333h597.333c11.776 0 21.333-9.536 21.333-21.333s-9.557-21.333-21.333-21.333zM170.667 85.333h-42.667c-23.531 0-42.667 19.136-42.667 42.667v42.667c0 23.531 19.136 42.667 42.667 42.667h42.667c23.531 0 42.667-19.136 42.667-42.667v-42.667c0-23.531-19.136-42.667-42.667-42.667zM128 170.667v-42.667h42.688l-0.021 42.667h-42.667zM917.333 128h-597.333c-11.776 0-21.333 9.536-21.333 21.333s9.557 21.333 21.333 21.333h597.333c11.776 0 21.333-9.536 21.333-21.333s-9.557-21.333-21.333-21.333z" />
<glyph unicode="&#xe928;" glyph-name="icon_edit" d="M839.403 650.112c-5.824 10.219-18.88 13.803-29.099 7.979-10.24-5.824-13.803-18.859-8-29.099 5.483-9.6 8.363-20.544 8.363-31.659v-469.333c0-35.285-28.715-64-64-64h-469.333c-35.285 0-64 28.715-64 64v469.333c0 35.285 28.715 64 64 64h256c11.776 0 21.333 9.536 21.333 21.333s-9.557 21.333-21.333 21.333h-256c-58.816 0-106.667-47.851-106.667-106.667v-469.333c0-58.816 47.851-106.667 106.667-106.667h469.333c58.816 0 106.667 47.851 106.667 106.667v469.333c0 18.496-4.821 36.757-13.931 52.779zM424.277 416.683l-15.659-94.123c-1.344-7.979 1.963-16 8.491-20.757 3.712-2.709 8.107-4.075 12.544-4.075 3.371 0 6.72 0.789 9.813 2.389l84.693 43.947c2.944 1.515 5.483 3.712 7.445 6.4l313.6 431.403c6.677 9.195 9.387 20.459 7.595 31.744-1.771 11.264-7.829 21.163-17.024 27.84l-34.517 25.088c-18.325 13.355-46.315 8.896-59.584-9.408l-313.621-431.403c-1.941-2.667-3.243-5.76-3.776-9.045zM509.632 392.789l-34.517 25.088 250.88 345.109 34.517-25.088-250.88-345.109z" />
<glyph unicode="&#xe929;" glyph-name="icon_favorate" d="M286.677 42.667c-3.456 0-6.912 0.299-10.325 0.875-16.619 2.88-31.061 11.989-40.661 25.643-9.493 13.504-13.163 29.888-10.283 46.144l37.355 216.107-158.101 152.576c-10.795 11.008-16.811 23.083-18.667 36.224-2.389 16.128 1.707 32.384 11.563 45.611 9.984 13.419 24.64 22.144 41.259 24.533l219.179 31.637 98.069 196.715c5.845 11.904 15.808 21.888 27.989 28.032 31.445 15.339 68.928 1.856 83.861-28.011l98.091-196.736 219.157-31.637c13.355-1.813 26.091-8.213 35.648-17.984 11.541-11.584 17.92-27.115 17.877-43.627-0.043-16.555-6.549-32.107-18.283-43.755-0.491-0.491-1.088-1.024-1.685-1.515-0.171-0.149-0.341-0.299-0.491-0.448l-156.949-151.637 37.376-216.171c2.496-13.269 0.256-27.477-6.379-39.68-10.624-20.181-31.744-32.896-54.997-32.896-9.344 0-18.411 2.027-26.944 6.016-0.533 0.256-198.336 103.147-198.336 103.147s-199.531-103.787-201.493-104.597c-9.109-3.285-16.491-4.565-23.829-4.565zM511.936 810.667c-3.093 0-6.080-0.704-8.917-2.091-3.648-1.856-6.848-5.013-8.704-8.768l-103.104-206.805c-3.115-6.272-9.131-10.603-16.043-11.584l-230.251-33.237c-5.312-0.768-9.984-3.541-13.141-7.808-3.029-4.053-4.309-9.045-3.563-14.016 0.597-4.203 2.56-8.064 5.675-11.243l166.613-160.811c5.099-4.907 7.424-12.011 6.208-18.987l-39.296-227.285c-0.896-5.077 0.235-10.133 3.157-14.293 3.051-4.331 7.659-7.232 12.971-8.149 3.392-0.576 7.147-0.213 10.901 1.152 0.299 0.171 1.003 0.491 1.643 0.811 0.384 0.235 0.768 0.448 1.152 0.619l204.907 106.624c6.165 3.2 13.504 3.221 19.669 0.021l205.141-106.731c0.555-0.235 1.429-0.704 1.963-0.981 8-3.712 20.928-0.427 25.685 8.576 2.091 3.883 2.752 8.043 2.027 12.011l-39.36 227.605c-1.216 6.955 1.131 14.059 6.187 18.965l165.632 160.021c0.512 0.512 1.088 0.981 1.643 1.429 0.021 0.021 0.064 0.043 0.085 0.064 3.221 3.307 5.163 8.064 5.184 13.12 0.021 5.099-1.963 9.899-5.568 13.504-3.008 3.093-7.168 5.184-11.221 5.739l-230.379 33.28c-6.933 0.981-12.928 5.312-16.043 11.584l-103.083 206.699c-3.371 6.763-10.176 10.965-17.771 10.965z" />
<glyph unicode="&#xe92a;" glyph-name="icon_flag" d="M895.979 790.101c-0.235 6.4-3.328 12.373-8.448 16.235-5.12 3.883-11.733 5.205-17.92 3.733-157.013-38.187-198.421-23.829-250.795-5.632-37.163 12.907-79.317 27.563-163.712 27.563-206.357 0-312.597-64.448-317.013-67.2-9.643-5.973-12.907-18.432-7.467-28.373l362.667-661.333c3.883-7.083 11.179-11.093 18.731-11.093 3.477 0 6.976 0.832 10.24 2.624 10.325 5.675 14.123 18.624 8.448 28.949l-160.192 292.117c42.731 110.293 137.877 130.859 238.507 152.619 58.411 12.629 118.827 25.685 166.869 57.963 122.581 82.347 120.256 187.392 120.085 191.829zM752.107 633.707c-41.259-27.712-95.083-39.36-152.107-51.669-93.739-20.267-198.784-43.008-255.019-147.797l-166.4 303.467c36.928 17.003 130.112 51.627 276.523 51.627 77.184 0 114.048-12.821 149.717-25.216 53.12-18.475 99.477-34.56 244.757-2.517-7.531-30.741-30.101-82.645-97.472-127.893z" />
<glyph unicode="&#xe92b;" glyph-name="icon_home" d="M931.733 527.723l-348.373 319.061c-40.683 37.269-102.037 37.269-142.72 0l-348.373-319.061c-8.683-7.957-9.28-21.44-1.323-30.144s21.44-9.301 30.144-1.323l6.912 6.357v-374.613c0-58.816 47.851-106.667 106.667-106.667h554.667c58.816 0 106.667 47.851 106.667 106.667v374.613l6.933-6.336c4.096-3.755 9.237-5.611 14.4-5.611 5.781 0 11.541 2.325 15.744 6.933 7.936 8.683 7.36 22.165-1.344 30.123zM426.667 64v234.667c0 11.755 9.579 21.333 21.333 21.333h128c11.755 0 21.333-9.579 21.333-21.333v-234.667h-170.667zM853.333 128c0-35.285-28.715-64-64-64h-149.333v234.667c0 35.285-28.715 64-64 64h-128c-35.285 0-64-28.715-64-64v-234.667h-149.333c-35.285 0-64 28.715-64 64v413.696l298.773 273.643c24.277 22.208 60.864 22.208 85.099 0l298.795-273.643v-413.696z" />
<glyph unicode="&#xe92c;" glyph-name="icon_link" d="M768 874.667c-45.589 0-88.448-17.749-120.683-49.984l-213.333-213.333c-32.235-32.256-49.984-75.115-49.984-120.683 0-70.891 44.608-135.168 111.019-159.936 2.453-0.917 4.971-1.344 7.467-1.344 8.64 0 16.789 5.291 19.989 13.867 4.117 11.051-1.493 23.339-12.523 27.435-49.835 18.581-83.285 66.795-83.285 119.979 0 34.176 13.312 66.325 37.483 90.517l213.333 213.333c24.171 24.171 56.32 37.483 90.517 37.483 70.592 0 128-57.408 128-128 0-34.176-13.312-66.325-37.483-90.517l-170.667-170.667c-8.341-8.341-8.341-21.824 0-30.165s21.824-8.341 30.165 0l170.667 170.667c32.235 32.256 49.984 75.115 49.984 120.683 0 94.101-76.565 170.667-170.667 170.667zM528.981 565.269c-11.008 4.117-23.339-1.472-27.456-12.523s1.493-23.339 12.523-27.435c49.835-18.581 83.285-66.795 83.285-119.979 0-34.176-13.312-66.325-37.483-90.517l-213.333-213.333c-24.171-24.171-56.32-37.483-90.517-37.483-70.592 0-128 57.408-128 128 0 34.176 13.312 66.325 37.483 90.517l170.667 170.667c8.341 8.341 8.341 21.824 0 30.165s-21.824 8.341-30.165 0l-170.667-170.667c-32.235-32.256-49.984-75.115-49.984-120.683 0-94.101 76.565-170.667 170.667-170.667 45.589 0 88.448 17.749 120.683 49.984l213.333 213.333c32.235 32.256 49.984 75.115 49.984 120.683 0 70.891-44.608 135.168-111.019 159.936z" />
<glyph unicode="&#xe92d;" glyph-name="icon_location" d="M512 682.667c-82.347 0-149.333-67.008-149.333-149.333s66.987-149.333 149.333-149.333c82.325 0 149.333 67.008 149.333 149.333s-67.008 149.333-149.333 149.333zM512 426.667c-58.816 0-106.667 47.851-106.667 106.667s47.851 106.667 106.667 106.667 106.667-47.851 106.667-106.667-47.851-106.667-106.667-106.667zM512 874.667c-188.203 0-341.333-153.131-341.333-341.333 0-71.275 21.739-139.541 62.848-197.419l191.467-269.632c20.011-28.139 52.523-44.949 87.019-44.949s67.029 16.811 87.019 44.949l191.467 269.632c41.109 57.877 62.848 126.144 62.848 197.419 0 188.203-153.131 341.333-341.333 341.333zM755.691 360.619l-191.467-269.632c-11.989-16.896-31.531-26.987-52.224-26.987s-40.213 10.112-52.224 27.008l-191.467 269.632c-35.968 50.603-54.976 110.336-54.976 172.693 0 164.693 133.973 298.667 298.667 298.667s298.667-133.973 298.667-298.667c0-62.357-19.008-122.091-54.976-172.715z" />
<glyph unicode="&#xe92e;" d="M597.333 448c0-47.128-38.205-85.333-85.333-85.333s-85.333 38.205-85.333 85.333c0 47.128 38.205 85.333 85.333 85.333s85.333-38.205 85.333-85.333z" />
<glyph unicode="&#xe92f;" d="M938.667 448c0-47.128-38.205-85.333-85.333-85.333s-85.333 38.205-85.333 85.333c0 47.128 38.205 85.333 85.333 85.333s85.333-38.205 85.333-85.333z" />
<glyph unicode="&#xe930;" d="M256 448c0-47.128-38.205-85.333-85.333-85.333s-85.333 38.205-85.333 85.333c0 47.128 38.205 85.333 85.333 85.333s85.333-38.205 85.333-85.333z" />
<glyph unicode="&#xe931;" glyph-name="icon_service" d="M810.667 613.653c-58.24 104.768-170.027 175.68-298.667 175.68s-240.427-70.912-298.667-175.68c-73.6-18.944-128-85.611-128-165.035s54.4-146.091 128-165.035c48.64-87.531 134.4-151.189 236.373-169.941 6.4-28.565 31.787-49.643 62.293-49.643s55.893 21.077 62.293 49.621c1.067 4.693 1.707 9.365 1.707 14.272 0 10.005-2.347 19.584-6.613 28.117-10.453 21.077-32.213 35.776-57.387 35.776s-46.933-14.699-57.387-35.776c-78.080 15.125-145.067 60.48-188.587 123.733 39.467 11.285 53.973 90.091 53.973 168.875s-14.507 157.589-53.973 168.875c53.76 78.165 143.787 129.259 245.973 129.259s192.213-51.115 245.973-129.259c-39.467-11.307-53.973-90.091-53.973-168.896s14.507-157.589 53.973-168.875c3.2-1.067 6.613-1.493 10.027-1.493 14.72 0 29.013 1.92 42.667 5.333 73.6 18.944 128 85.611 128 165.035 0 79.445-54.4 146.091-128 165.056zM512 149.184c11.733 0 21.333-9.579 21.333-21.291s-9.6-21.291-21.333-21.291-21.333 9.579-21.333 21.291 9.6 21.291 21.333 21.291zM256 576.384c35.413 0 42.667-63.893 42.667-127.765s-7.253-127.765-42.667-127.765c-4.907 0-9.6 0.213-14.293 0.853-19.627 2.133-37.547 8.512-53.333 18.517-36.267 22.549-60.373 62.592-60.373 108.373s24.107 85.824 60.373 108.395c15.787 10.005 33.707 16.405 53.333 18.517 4.693 0.661 9.387 0.875 14.293 0.875zM835.627 340.203c-15.787-10.005-33.707-16.405-53.333-18.517-4.693-0.64-9.387-0.853-14.293-0.853-35.413 0-42.667 63.893-42.667 127.765s7.253 127.765 42.667 127.765c4.907 0 9.6-0.213 14.293-0.853 19.627-2.133 37.547-8.512 53.333-18.517 36.267-22.571 60.373-62.613 60.373-108.395s-24.107-85.824-60.373-108.395z" />
<glyph unicode="&#xe932;" glyph-name="icon_share1" d="M725.333 490.667c94.101 0 170.667 76.565 170.667 170.667s-76.565 170.667-170.667 170.667-170.667-76.565-170.667-170.667c0-26.069 6.037-50.688 16.533-72.789l-220.352-140.224c-23.445 25.941-57.216 42.347-94.848 42.347-70.592 0-128-57.408-128-128s57.408-128 128-128c41.408 0 78.187 19.84 101.589 50.432l220.864-116.267c-1.472-6.272-2.453-12.757-2.453-19.499 0-47.061 38.272-85.333 85.333-85.333s85.333 38.272 85.333 85.333-38.272 85.333-85.333 85.333c-24.981 0-47.253-10.965-62.891-28.139l-220.885 116.267c4.139 12.565 6.443 25.941 6.443 39.872 0 17.643-3.584 34.453-10.069 49.771l220.075 140.053c31.339-37.739 78.571-61.824 131.328-61.824zM661.333 192c23.531 0 42.667-19.136 42.667-42.667s-19.136-42.667-42.667-42.667-42.667 19.136-42.667 42.667 19.136 42.667 42.667 42.667zM256 277.333c-47.061 0-85.333 38.272-85.333 85.333s38.272 85.333 85.333 85.333 85.333-38.272 85.333-85.333-38.272-85.333-85.333-85.333zM725.333 789.333c70.592 0 128-57.408 128-128s-57.408-128-128-128-128 57.408-128 128 57.408 128 128 128z" />
<glyph unicode="&#xe933;" glyph-name="icon_share2" d="M725.333 618.667h-85.333c-11.797 0-21.333-9.536-21.333-21.333s9.536-21.333 21.333-21.333h85.333c35.285 0 64-28.715 64-64v-384c0-35.285-28.715-64-64-64h-426.667c-35.285 0-64 28.715-64 64v384c0 35.285 28.715 64 64 64h85.333c11.776 0 21.333 9.536 21.333 21.333s-9.557 21.333-21.333 21.333h-85.333c-58.816 0-106.667-47.851-106.667-106.667v-384c0-58.816 47.851-106.667 106.667-106.667h426.667c58.816 0 106.667 47.851 106.667 106.667v384c0 58.816-47.851 106.667-106.667 106.667zM399.083 710.251l91.584 91.584v-460.501c0-11.797 9.557-21.333 21.333-21.333s21.333 9.536 21.333 21.333v460.501l91.584-91.584c4.16-4.16 9.621-6.251 15.083-6.251s10.923 2.091 15.083 6.251c8.341 8.341 8.341 21.824 0 30.165l-128 128c-8.341 8.341-21.824 8.341-30.165 0l-128-128c-8.341-8.341-8.341-21.824 0-30.165s21.824-8.341 30.165 0z" />
<glyph unicode="&#xe934;" glyph-name="icon_telephone" d="M786.069 63.979c-3.264 0-6.528 0.128-9.707 0.384-4.032 0.384-7.104 0.704-9.6 1.237-328.192 51.605-583.616 306.944-634.581 635.2-0.853 5.781-1.387 15.168-1.387 20.416 0 60.053 48.811 110.784 106.581 110.784h119.893c58.645 0 112.064-54.763 112.064-114.923v-78.507c0-36.736-22.208-73.067-56.576-92.587l-74.731-42.155c56.107-97.835 136.107-178.091 233.109-233.877l41.856 76.992c20.203 35.627 56.405 58.389 92.416 58.389h78.528c58.645 0 112.064-54.763 112.064-114.923v-119.68c0-73.344-57.003-106.752-109.931-106.752zM237.376 789.333c-34.048 0-63.915-31.829-63.915-68.117 0-3.669 0.427-10.56 0.917-14.059 48.085-309.675 289.216-550.677 599.979-599.573 2.091-0.427 9.536-0.917 11.712-0.917 31.019 0 67.264 16.789 67.264 64.085v119.68c0 35.776-35.029 72.235-69.397 72.235h-78.528c-20.928 0-42.581-14.293-55.147-36.416l-51.925-95.531c-5.589-10.283-18.347-14.208-28.779-8.64-118.955 63.232-215.552 160.043-279.296 279.957-5.44 10.219-1.728 22.912 8.363 28.608l93.077 52.48c21.205 12.032 34.944 33.813 34.944 55.467v78.507c0.021 35.776-35.008 72.235-69.376 72.235h-119.893z" />
<glyph unicode="&#xe935;" d="M938.667 192c0-47.125-38.208-85.333-85.333-85.333h-682.667c-47.125 0-85.333 38.208-85.333 85.333v512c0 47.125 38.208 85.333 85.333 85.333h682.667c47.125 0 85.333-38.208 85.333-85.333v-512z" />
<glyph unicode="&#xe936;" d="M85.333 661.333h853.333v-128h-853.333v128z" />
<glyph unicode="&#xe937;" d="M810.667 405.333h-42.667c-23.573 0-42.667-19.093-42.667-42.667v-42.667c0-23.573 19.093-42.667 42.667-42.667h42.667c23.573 0 42.667 19.093 42.667 42.667v42.667c0 23.573-19.093 42.667-42.667 42.667z" />
<glyph unicode="&#xe938;" d="M812.181 169.664l83.819 406.336h-1.344l-126.293-181.227-43.029 266.56-77.568-186.176-135.765 271.509-135.211-272.853-78.123 187.52-43.029-266.56-126.293 181.227h-1.344l83.819-406.336c-26.24-6.059-41.152-12.971-41.152-20.331 0-23.573 152.811-42.667 341.333-42.667s341.333 19.093 341.333 42.667c0 7.36-14.912 14.272-41.152 20.331z" />
<glyph unicode="&#xe939;" d="M170.667 576c0-23.564-19.103-42.667-42.667-42.667s-42.667 19.103-42.667 42.667c0 23.564 19.103 42.667 42.667 42.667s42.667-19.103 42.667-42.667z" />
<glyph unicode="&#xe93a;" d="M554.667 746.667c0-23.564-19.103-42.667-42.667-42.667s-42.667 19.103-42.667 42.667c0 23.564 19.103 42.667 42.667 42.667s42.667-19.103 42.667-42.667z" />
<glyph unicode="&#xe93b;" d="M341.333 661.333c0-23.564-19.103-42.667-42.667-42.667s-42.667 19.103-42.667 42.667c0 23.564 19.103 42.667 42.667 42.667s42.667-19.103 42.667-42.667z" />
<glyph unicode="&#xe93c;" d="M938.667 576c0-23.564-19.103-42.667-42.667-42.667s-42.667 19.103-42.667 42.667c0 23.564 19.103 42.667 42.667 42.667s42.667-19.103 42.667-42.667z" />
<glyph unicode="&#xe93d;" d="M768 661.333c0-23.564-19.103-42.667-42.667-42.667s-42.667 19.103-42.667 42.667c0 23.564 19.103 42.667 42.667 42.667s42.667-19.103 42.667-42.667z" />
<glyph unicode="&#xe93e;" glyph-name="icon3" d="M906.667 571.947c18.773 4.907 32 21.973 32 41.387v90.667c0 47.147-38.187 85.333-85.333 85.333h-682.667c-47.147 0-85.333-38.187-85.333-85.333v-90.667c0-19.413 13.227-36.48 32-41.387 55.040-14.293 96-64.427 96-123.947s-40.96-109.653-96-123.947c-18.773-4.907-32-21.973-32-41.387v-90.667c0-47.147 38.187-85.333 85.333-85.333h682.667c47.147 0 85.333 38.187 85.333 85.333v90.667c0 19.413-13.227 36.48-32 41.387-55.040 14.293-96 64.427-96 123.947s40.96 109.653 96 123.947zM682.667 320h-341.333v42.667h341.333v-42.667zM682.667 448h-341.333v42.667h341.333v-42.667zM682.667 576h-341.333v42.667h341.333v-42.667z" />
<glyph unicode="&#xe93f;" glyph-name="icon4" d="M725.333 832c-17.28 0-33.984-5.141-49.707-14.699l-291.627-177.301h-106.667c-82.475 0-149.333-66.859-149.333-149.333s66.859-149.333 149.333-149.333h1.429l135.957-254.72c7.253-13.867 21.76-22.613 37.547-22.613h31.36c23.467 0 42.667 19.2 42.667 42.667 0 5.333-1.067 10.453-2.773 15.36-0.853 1.493-1.493 3.2-2.347 4.693l-103.509 194.155 257.963-156.843c15.723-9.557 32.427-14.699 49.707-14.699 94.251 0 170.667 152.811 170.667 341.333s-76.416 341.333-170.667 341.333zM725.333 234.667c-47.125 0-85.333 114.624-85.333 256s38.208 256 85.333 256 85.333-114.624 85.333-256-38.208-256-85.333-256zM704.597 576c-13.547-25.408-21.931-54.229-21.931-85.333s8.384-59.925 21.931-85.333c36.437 10.112 63.403 44.288 63.403 85.333s-26.965 75.221-63.403 85.333z" />
<glyph unicode="&#xe940;" glyph-name="icon5" d="M512 874.667c-188.203 0-341.333-153.131-341.333-341.333 0-74.453 25.707-145.216 70.272-204.651l207.061-273.173c21.333-21.397 37.291-34.176 64.021-34.176s42.645 12.779 63.979 34.133v8.533h2.155l205.995 268.949c44.587 59.435 68.651 128.064 68.651 202.517 0 188.203-152.597 339.2-340.8 339.2zM512 362.667c-94.251 0-170.667 76.416-170.667 170.667s76.416 170.667 170.667 170.667c94.251 0 170.667-76.416 170.667-170.667s-76.416-170.667-170.667-170.667zM597.333 533.333c0-47.128-38.205-85.333-85.333-85.333s-85.333 38.205-85.333 85.333c0 47.128 38.205 85.333 85.333 85.333s85.333-38.205 85.333-85.333z" />
<glyph unicode="&#xe941;" glyph-name="icon6" d="M924.8 495.147c-0.213 0.213-0.427 0.427-0.64 0.427s-0.64 0.213-0.853 0.213l-78.208 26.069c-8.725 39.488-24.32 76.288-45.397 109.333l36.907 73.877c0.149 0.149 0.299 0.597 0.448 0.747s0.149 0.448 0.299 0.597c3.477 8 1.963 17.643-4.373 23.979l-38.613 38.613c-6.336 6.336-15.979 7.851-23.829 4.224-0.299 0-0.597 0-0.747-0.149s-0.597-0.299-0.747-0.448l-73.856-36.928c-33.045 21.077-69.845 36.672-109.333 45.397l-26.069 78.208c0 0.213-0.213 0.64-0.213 0.853s-0.213 0.427-0.213 0.64c-3.2 8.107-11.093 13.867-20.053 13.867h-54.613c-8.96 0-16.853-5.76-19.84-13.867-0.213-0.213-0.427-0.427-0.427-0.64s-0.213-0.64-0.213-0.853l-26.069-78.208c-39.488-8.725-76.288-24.32-109.333-45.397l-73.877 36.907c-0.149 0.149-0.597 0.299-0.747 0.448s-0.448 0.149-0.597 0.299c-8 3.477-17.643 1.963-23.979-4.373l-38.613-38.613c-6.336-6.336-7.851-15.979-4.224-23.829 0-0.299 0-0.597 0.149-0.747s0.299-0.597 0.448-0.747l36.928-73.856c-21.077-33.045-36.672-69.845-45.397-109.333l-78.208-26.069c-0.213 0-0.64-0.213-0.853-0.213s-0.427-0.213-0.64-0.213c-8.107-3.2-13.867-11.093-13.867-20.053v-54.613c0-8.96 5.76-16.853 13.867-19.84 0.213-0.213 0.427-0.427 0.64-0.427s0.64-0.213 0.853-0.213l78.208-26.069c8.725-39.488 24.32-76.288 45.397-109.333l-36.907-73.877c-0.149-0.149-0.299-0.597-0.448-0.747s-0.149-0.448-0.299-0.597c-3.477-8-1.963-17.643 4.373-23.979l38.613-38.613c6.336-6.336 15.979-7.851 23.829-4.224 0.299 0 0.597 0 0.747 0.149s0.597 0.299 0.747 0.448l73.856 36.928c33.045-21.077 69.845-36.672 109.333-45.397l26.069-78.208c0-0.213 0.213-0.64 0.213-0.853s0.213-0.427 0.213-0.64c3.2-8.107 11.093-13.867 20.053-13.867h54.613c8.96 0 16.853 5.76 19.84 13.867 0.213 0.213 0.427 0.427 0.427 0.64s0.213 0.64 0.213 0.853l26.069 78.208c39.488 8.725 76.288 24.32 109.333 45.397l73.877-36.907c0.149-0.149 0.597-0.299 0.747-0.448s0.448-0.149 0.597-0.299c8-3.477 17.643-1.963 23.979 4.373l38.613 38.613c6.336 6.336 7.851 15.979 4.224 23.829 0 0.299 0 0.597-0.149 0.747s-0.299 0.597-0.448 0.747l-36.928 73.856c21.077 33.045 36.672 69.845 45.397 109.333l78.208 26.069c0.213 0 0.64 0.213 0.853 0.213s0.427 0.213 0.64 0.213c8.107 3.2 13.867 11.093 13.867 20.053v54.613c0 8.96-5.76 16.853-13.867 19.84zM512 234.667c-117.824 0-213.333 95.509-213.333 213.333s95.509 213.333 213.333 213.333 213.333-95.509 213.333-213.333-95.509-213.333-213.333-213.333zM640 448c0-70.692-57.308-128-128-128s-128 57.308-128 128c0 70.692 57.308 128 128 128s128-57.308 128-128z" />
<glyph unicode="&#xe942;" d="M938.667 712v-512c0-47.147-38.187-93.333-85.333-93.333h-433.28c-23.040 0-44.8 13.397-61.013 29.611l-0.427 2.432-249.173 256.768c-14.933 15.36-24.107 36.779-24.107 60.032s9.173 44.416 24.107 59.776l249.173 255.68c0 0.213 0 0.277 0.213 0.491l0.213-3.755c16.213 16.213 37.973 21.632 61.013 21.632h433.28c47.147 0 85.333-30.187 85.333-77.333z" />
<glyph unicode="&#xe943;" d="M533.333 626.773c-35.413 0-64-28.8-64-64 0-35.413 28.587-64 64-64s64 28.587 64 64c0 35.2-28.587 64-64 64zM533.333 541.44c-11.733 0-21.333 9.387-21.333 21.333 0 11.733 9.6 21.333 21.333 21.333s21.333-9.6 21.333-21.333c0-11.947-9.6-21.333-21.333-21.333z" />
<glyph unicode="&#xe944;" d="M704 413.44c-35.413 0-64-28.8-64-64 0-35.413 28.587-64 64-64s64 28.587 64 64c0 35.2-28.587 64-64 64zM704 328.107c-11.733 0-21.333 9.387-21.333 21.333 0 11.733 9.6 21.333 21.333 21.333s21.333-9.6 21.333-21.333c0-11.947-9.6-21.333-21.333-21.333z" />
<glyph unicode="&#xe945;" d="M490.667 285.333c-4.907 0-9.856 1.685-13.867 5.141-8.939 7.659-9.984 21.12-2.304 30.059l256 298.667c7.659 8.939 21.141 9.963 30.059 2.304 8.96-7.659 10.005-21.141 2.304-30.080l-256-298.667c-4.203-4.907-10.197-7.424-16.192-7.424z" />
<glyph unicode="&#xe946;" glyph-name="icon8" d="M640 789.333c0-23.573-19.093-42.667-42.667-42.667h-170.667c-23.573 0-42.667 19.093-42.667 42.667v42.667c0 23.573 19.093 42.667 42.667 42.667h170.667c23.573 0 42.667-19.093 42.667-42.667v-42.667zM771.563 832v0c-23.467 0-40.896-19.2-40.896-42.667 0-47.147-36.416-85.333-83.563-85.333h-256c-47.147 0-85.333 38.187-85.333 85.333 0 23.467-22.763 42.667-46.229 42.667v0c-47.125 0-88.875-38.187-88.875-85.333v-640c0-47.147 45.291-85.333 92.437-85.333h512c47.147 0 78.229 38.187 78.229 85.333v640c0 47.147-34.624 85.333-81.771 85.333zM725.333 192h-426.667v42.667h426.667v-42.667zM725.333 362.667h-426.667v42.667h426.667v-42.667zM725.333 533.333h-426.667v42.667h426.667v-42.667z" />
<glyph unicode="&#xe947;" d="M938.667 448c0-235.641-191.025-426.667-426.667-426.667s-426.667 191.025-426.667 426.667c0 235.641 191.025 426.667 426.667 426.667s426.667-191.025 426.667-426.667z" />
<glyph unicode="&#xe948;" d="M512 106.667c-188.203 0-341.333 153.131-341.333 341.333s153.131 341.333 341.333 341.333 341.333-153.131 341.333-341.333-153.131-341.333-341.333-341.333zM512 746.667c-164.693 0-298.667-133.973-298.667-298.667s133.973-298.667 298.667-298.667 298.667 133.973 298.667 298.667-133.973 298.667-298.667 298.667z" />
<glyph unicode="&#xe949;" d="M640 618.667h-42.667l-85.333-128-85.333 128h-42.667l85.333-128h-85.333v-42.667h106.667v-42.667h-106.667v-42.667h106.667v-85.333h42.667v85.333h106.667v42.667h-106.667v42.667h106.667v42.667h-85.333z" />
<glyph unicode="&#xe94a;" d="M864.64 556.8c-1.045 0.853-295.637 253.397-297.131 254.699-14.933 12.779-34.325 20.501-55.509 20.501s-40.576-7.723-55.509-20.501c-1.493-1.301-296.448-254.144-297.131-254.699-19.2-15.573-31.36-39.467-31.36-66.133v-341.333c0-47.147 38.187-85.333 85.333-85.333h597.333c47.147 0 85.333 38.187 85.333 85.333v341.333c0 26.667-12.16 50.56-31.36 66.133z" />
<glyph unicode="&#xe94b;" d="M213.333 490.667v-85.333l298.667-170.667 298.667 170.667v85.333z" />
<glyph unicode="&#xe94c;" d="M469.973 216.533l-106.027-183.68c-2.773-4.693-7.467-8.32-12.8-9.813-11.307-2.987-23.253 3.84-26.24 15.147l-13.44 74.24-71.040-25.387c-5.547-1.493-11.52-0.853-16.427 2.133-10.24 5.76-13.653 18.987-7.893 29.013l91.947 159.147h83.413c11.307 0 22.187-4.48 30.080-12.587l48.427-48.213z" />
<glyph unicode="&#xe94d;" d="M810.027 101.333c-3.2-11.307-14.933-18.133-26.24-15.147l-71.253 25.387-13.44-74.24c-1.493-5.547-4.907-10.24-9.813-13.227-10.24-5.76-23.467-2.347-29.227 7.893l-106.453 184.107 48.64 48.64c8.107 8.107 18.987 12.587 30.293 12.587h82.987l92.373-160c2.773-4.907 3.413-10.88 2.133-16z" />
<glyph unicode="&#xe94e;" d="M512 704c-94.101 0-170.667-76.565-170.667-170.667s76.565-170.667 170.667-170.667 170.667 76.565 170.667 170.667-76.565 170.667-170.667 170.667z" />
<glyph unicode="&#xe94f;" d="M840.939 563.243l-60.459 60.459c-7.979 7.979-12.48 18.837-12.48 30.165v92.8c0 23.573-19.093 42.667-42.667 42.667h-92.8c-11.307 0-22.165 4.501-30.165 12.501v0l-60.459 60.459c-16.512 16.512-43.285 16.512-59.797 0l-60.459-60.459c-8-8-18.859-12.501-30.187-12.501h-92.8c-23.573 0-42.667-19.093-42.667-42.667v-92.8c0-11.307-4.501-22.165-12.501-30.165l-60.459-60.459c-16.512-16.512-16.512-43.285 0-59.819l60.459-60.459c8-8 12.501-18.837 12.501-30.165v-92.8c0-23.573 19.093-42.667 42.667-42.667h92.8c11.307 0 22.165-4.501 30.165-12.501l60.459-60.459c16.512-16.512 43.285-16.512 59.797 0l60.459 60.459c8 8 18.859 12.501 30.187 12.501h92.8c23.573 0 42.667 19.093 42.667 42.667v92.8c0 11.307 4.501 22.165 12.501 30.165l60.459 60.459c16.512 16.512 16.512 43.307-0.021 59.819zM512 320c-117.632 0-213.333 95.701-213.333 213.333s95.701 213.333 213.333 213.333 213.333-95.701 213.333-213.333-95.701-213.333-213.333-213.333z" />
<glyph unicode="&#xe950;" glyph-name="icon_trash_48" d="M810.667 661.333h-21.333v-554.667c0-47.125-38.208-85.333-85.333-85.333h-384c-47.125 0-85.333 38.208-85.333 85.333v554.667h-21.333c-23.573 0-42.667 19.093-42.667 42.667s19.093 42.667 42.667 42.667h149.333v85.333c0 23.573 19.093 42.667 42.667 42.667h213.333c23.573 0 42.667-19.093 42.667-42.667v-85.333h149.333c23.573 0 42.667-19.093 42.667-42.667s-19.093-42.667-42.667-42.667zM618.667 832h-213.333v-85.333h213.333v85.333zM746.667 661.333h-469.333v-554.667c0-23.573 19.093-42.667 42.667-42.667h384c23.573 0 42.667 19.093 42.667 42.667v554.667zM618.667 576h42.667v-426.667h-42.667v426.667zM490.667 576h42.667v-426.667h-42.667v426.667zM362.667 576h42.667v-426.667h-42.667v426.667z" />
<glyph unicode="&#xe951;" glyph-name="icon_close_48" d="M512 874.667c-235.648 0-426.667-191.019-426.667-426.667s191.019-426.667 426.667-426.667 426.667 191.019 426.667 426.667c0 235.648-191.019 426.667-426.667 426.667zM512 64c-212.075 0-384 171.925-384 384s171.925 384 384 384 384-171.925 384-384-171.925-384-384-384zM693.013 629.013c-8.341 8.341-21.845 8.341-30.165 0l-150.848-150.848-150.848 150.848c-8.341 8.341-21.845 8.341-30.165 0s-8.341-21.845 0-30.165l150.848-150.848-150.848-150.848c-8.341-8.341-8.341-21.845 0-30.165s21.845-8.341 30.165 0l150.848 150.848 150.848-150.848c8.341-8.341 21.845-8.341 30.165 0s8.341 21.845 0 30.165l-150.848 150.848 150.848 150.848c8.341 8.341 8.341 21.845 0 30.165z" />
<glyph unicode="&#xe952;" glyph-name="icon_like_24" d="M853.333 527.403c0-55.339-19.925-106.027-52.907-144.597-44.8-46.165-90.24-89.344-137.813-129.664-40.021-33.877-81.493-65.792-125.44-95.701-0.768-0.555-1.579-1.109-2.347-1.536-14.293-9.088-32.427-8.789-46.421 1.109-93.312 65.451-182.059 140.757-264.832 225.835-32.981 38.571-52.907 89.216-52.907 144.555 0 121.131 95.488 219.264 213.333 219.264 48.128 0 92.288-16.555 128-44.16 35.712 27.605 79.872 44.16 128 44.16 117.845 0 213.333-98.133 213.333-219.264z" />
<glyph unicode="&#xe953;" glyph-name="icon_dot_24" d="M768 448c0-141.385-114.615-256-256-256s-256 114.615-256 256c0 141.385 114.615 256 256 256s256-114.615 256-256z" />
<glyph unicode="&#xe954;" glyph-name="btn_search_48" d="M448 192c-176.448 0-320 143.552-320 320s143.552 320 320 320c176.448 0 320-143.552 320-320s-143.552-320-320-320zM448 789.333c-152.917 0-277.333-124.416-277.333-277.333s124.416-277.333 277.333-277.333c152.917 0 277.333 124.416 277.333 277.333s-124.416 277.333-277.333 277.333zM785.664 234.667h-60.331v-60.331l110.336-110.336h60.331v60.331z" />
<glyph unicode="&#xe955;" glyph-name="icon_search_32" d="M918.624 86.752l-253.792 253.792c45.216 55.264 72.416 125.888 72.416 202.88 0 177.024-143.552 320.576-320.64 320.576s-320.608-143.552-320.608-320.608 143.552-320.608 320.608-320.608c76.992 0 147.584 27.168 202.88 72.416l253.792-253.792c12.512-12.512 32.832-12.512 45.344 0s12.512 32.8 0 45.344zM416.608 286.88c-141.664 0-256.512 114.848-256.512 256.512s114.848 256.512 256.512 256.512c141.664 0 256.512-114.848 256.512-256.512s-114.848-256.512-256.512-256.512z" />
</font>
</defs>
</svg>
